Quick Login


Author Topic: WAR (2007) : โหด ปะทะ เดือด  (Read 1538 times)

0 Members and 1 Guest are viewing this topic.

Offline manofthematch

  • นักโพสร่วมก๊วน
  • **
  • Posts: 125
  • คะแนนรวม: 84
    • หนังอา
WAR (2007) : โหด ปะทะ เดือด
« on: October 25, 2012, 07:58:14 PM »





   เรื่องย่อ

   โหด ปะทะ เดือด หลังจากที่คู่หูและครอบครัวถูกฆาตกรรมอย่างโหดเหี้ยมจาก “โรก” นักฆ่าฝีมือฉกาจชาวเอเชีย “แจ๊ค ครอฟอร์ด” เจ้าหน้าที่ FBIตกอยู่ในวังวนของความแค้น และต้องการสะสางหนี้บัญชีเลือดอย่างที่สุดในขณะที่ “โรก” เองก็ต้องเผชิญกับการห้ำหั่นของ 2 แก๊งค์ใหญ่ฝั่งเอเชียและเมื่อทั้งคู่ต้องมาเผชิญหน้า กันในที่สุดความจริง ทุกอย่างครั้งอดีตจึงถูกเปิดเผยอย่างสิ้น..

   Format : Matroska

   File size : 1.12 GiB

   Duration : 1h 43mn

   Overall bit rate : 1 549 Kbps

   Movie name : War.2007.720P.BRRipx264_by NongZEZA@CtHts

   Encoded date : UTC 2012-10-20 22:56:34

   Video

   ID : 1

   Format : AVC

   Format/Info : Advanced Video Codec

   Format profile : High@L3.1

   Format settings, CABAC : Yes

   Format settings, ReFrames : 5 frames

   Muxing mode : Container profile=@3.1

   Codec ID : V_MPEG4/ISO/AVC

   Duration : 1h 43mn

   Bit rate : 750 Kbps

   Nominal bit rate : 787 Kbps

   Width : 1 280 pixels

   Height : 528 pixels

   Display aspect ratio : 2.40:1

   Frame rate : 23.976 fps

   Resolution : 8 bits

   Colorimetry : 4:2:0

   Scan type : Progressive

   Bits/(Pixel*Frame) : 0.046

   Stream size : 556 MiB (48%)

   Title : War.2007.720P.BRRipx264_by NongZEZA@CtHts

   Writing library : x264 core 114 r1913 5fd3dce

   Language : Thai

   Audio #1

   ID : 2

   Format : AC-3

   Format/Info : Audio Coding 3

   Codec ID : A_AC3

   Duration : 1h 43mn

   Bit rate mode : Constant

   Bit rate : 384 Kbps

   Channel(s) : 6 channels

   Channel positions : Front: L C R, Side: L R, LFE

   Sampling rate : 48.0 KHz

   Stream size : 285 MiB (25%)

   Title : Thai.AC3.DVD.Master

   Language : Thai

   Audio #2

   ID : 3

   Format : AC-3

   Format/Info : Audio Coding 3

   Codec ID : A_AC3

   Duration : 1h 43mn

   Bit rate mode : Constant

   Bit rate : 384 Kbps

   Channel(s) : 6 channels

   Channel positions : Front: L C R, Side: L R, LFE

   Sampling rate : 48.0 KHz

   Stream size : 285 MiB (25%)

   Title : Eng.AC3.DVD.Master

   Text #1

   ID : 4

   Format : VobSub

   Codec ID : S_VOBSUB

   Codec ID/Info : The same subtitle format used on DVDs

   Title : Thai..480p.DVD.Master

   Language : Thai

   Text #2

   ID : 5

   Format : UTF-8

   Codec ID : S_TEXT/UTF8

   Codec ID/Info : UTF-8 Plain Text

   Title : Eng.480p.DVD.Master




 

loading...