Quick Login


Author Topic: The Amazing Spider-Man ดิ อะเมซิ่ง สไปเดอร์แมน  (Read 1772 times)

0 Members and 1 Guest are viewing this topic.

Offline manofthematch

  • นักโพสร่วมก๊วน
  • **
  • Posts: 125
  • คะแนนรวม: 84
    • หนังอา

   

   

   The Amazing Spider-Man ดิ อะเมซิ่ง สไปเดอร์แมน (2012)

   

   เรื่องย่อ :

   

   ...การผจญภัยครั้งใหม่ของซูเปอร์ฮีโร่อันดับหนึ่งตลอดกาล...

   ปีเตอร์ พาร์คเกอร์ (แอนดรูว์ การ์ฟีลด์) เด็กหนุ่มวัยรุ่นผู้แปลกแยกจากสังคมใช้เวลาส่วนใหญ่ในแต่ละวัน

   กับการหาความลับเกี่ยวกับอดีตของเขาและเอาชนะใจ เกว็น สเตซี่ (เอ็มม่า สโตน) เพื่อนร่วมชั้นที่เขาแอบรัก

   จนเมื่อกระเป๋าเอกสารลึกลับของพ่อผู้จากเขาไปเมื่อครั้งยังเด็ก ได้พาปีเตอร์มาพบกับ ดร.คอนเนอร์ส

   อดีตเพื่อนร่วมงานของพ่อ ซึ่งการค้นพบความลับของพ่อครั้งนี้เองได้เปลี่ยนชะตากรรมให้ปีเตอร์กลายเป็น

   " สไปเดอร์แมน" และนำเขามาเผชิญหน้ากับด้านมืดของคอนเนอร์ที่กลายมาเป็นปีศาจร้าย "เดอะ ลิซาร์ด" !!

   

   Format : Matroska

   File size : 9.86 GiB

   Duration : 2h 16mn

   Overall bit rate : 10.4 Mbps

   Movie name : The.Amazing.Spiderman.2012.1080p.BluRay.x264.DTS - PORSC

   Encoded date : UTC 2012-10-25 11:34:12

   Writing application : mkvmerge v4.2.0 ( No Talking ) built on Jul 28 2010 18:38:23

   Writing library : libebml v1.0.0 + libmatroska v1.0.0

   

   Video

   ID : 1

   Format : AVC

   Format/Info : Advanced Video Codec

   Format profile : High@L4.1

   Format settings, CABAC : Yes

   Format settings, ReFrames : 5 frames

   Muxing mode : Container profile=Unknown@4.1

   Codec ID : V_MPEG4/ISO/AVC

   Duration : 2h 16mn

   Bit rate : 8 188 Kbps

   Nominal bit rate : 8 370 Kbps

   Width : 1 920 pixels

   Height : 804 pixels

   Display aspect ratio : 2.35:1

   Frame rate : 23.976 fps

   Resolution : 8 bits

   Colorimetry : 4:2:0

   Scan type : Progressive

   Bits/(Pixel*Frame) : 0.221

   Stream size : 7.79 GiB (79%)

   Title : The.Amazing.Spiderman.2012.1080p.BluRay.x264.DTS - PORSC

   Writing library : x264 core 128 r2216 198a7ea

   Encoding settings : cabac=1 / ref=5 / deblock=1:0:0 / analyse=0x3:0x113 / me=umh / subme=8 / psy=1 / psy_rd=1.00:0.00 / mixed_ref=1 / me_range=16 / chroma_me=1 / trellis=1 / 8x8dct=1 / cqm=0 / deadzone=21,11 / fast_pskip=1 / chroma_qp_offset=-2 / threads=12 / lookahead_threads=2 / sliced_threads=0 / nr=0 / decimate=1 / interlaced=0 / bluray_compat=0 / constrained_intra=0 / bframes=3 / b_pyramid=2 / b_adapt=2 / b_bias=0 / direct=3 / weightb=1 / open_gop=0 / weightp=2 / keyint=240 / keyint_min=24 / scenecut=40 / intra_refresh=0 / rc_lookahead=50 / rc=2pass / mbtree=1 / bitrate=8370 / ratetol=1.0 / qcomp=0.60 / qpmin=0 / qpmax=69 / qpstep=4 / cplxblur=20.0 / qblur=0.5 / ip_ratio=1.40 / aq=1:1.00

   

   Audio #1

   ID : 2

   Format : DTS

   Format/Info : Digital Theater Systems

   Codec ID : A_DTS

   Duration : 2h 16mn

   Bit rate mode : Constant

   Bit rate : 1 510 Kbps

   Channel(s) : 6 channels

   Channel positions : Front: L C R, Side: L R, LFE

   Sampling rate : 48.0 KHz

   Resolution : 24 bits

   Video delay : 11ms

   Stream size : 1.44 GiB (15%)

   Title : English DTS

   

   Audio #2

   ID : 3

   Format : AC-3

   Format/Info : Audio Coding 3

   Codec ID : A_AC3

   Duration : 2h 16mn

   Bit rate mode : Constant

   Bit rate : 448 Kbps

   Channel(s) : 6 channels

   Channel positions : Front: L C R, Side: L R, LFE

   Sampling rate : 48.0 KHz

   Stream size : 437 MiB (4%)

   Title : Thai DVD Master

   Language : Thai

   

   Text #1

   ID : 4

   Format : VobSub

   Codec ID : S_VOBSUB

   Codec ID/Info : The same subtitle format used on DVDs

   Title : Thai 1080p Angsana

   Language : Thai

   

   Text #2

   ID : 5

   Format : VobSub

   Codec ID : S_VOBSUB

   Codec ID/Info : The same subtitle format used on DVDs

   Title : Thai 1080p Angsana Out

   Language : Thai

   

   Text #3

   ID : 6

   Format : VobSub

   Codec ID : S_VOBSUB

   Codec ID/Info : The same subtitle format used on DVDs

   Title : Thai 480p DVD Master

   Language : Thai

   

   Text #4

   ID : 7

   Format : VobSub

   Codec ID : S_VOBSUB

   Codec ID/Info : The same subtitle format used on DVDs

   Title : Thai 1080p Angsana Yellow

   Language : Thai

   

   Text #5

   ID : 8

   Format : VobSub

   Codec ID : S_VOBSUB

   Codec ID/Info : The same subtitle format used on DVDs

   Title : Thai 1080p Sarabun

   Language : Thai

   

   Text #6

   ID : 9

   Format : UTF-8

   Codec ID : S_TEXT/UTF8

   Codec ID/Info : UTF-8 Plain Text

   Title : English




Offline sunsine

  • นักโพสฝึกหัด
  • *
  • Posts: 51
  • คะแนนรวม: 0

 

loading...